ExtraTorrents - The Largest Bittorent System Login   |    Register
Most searched
Hot torrents
Movie Torrents
View Torrent Info: For the Love of Jessee (2020) 720p WEB DL - X264 - AAC - E-Subs - DUSIcTv
View Torrent Info: Diving With Dolphins 2020 720p DSNP WEB-DL DDP5 1-BabyTorrent
View Torrent Info: The Elfkins Baking a Difference 2019 720p BluRay HEVC x265-RMTeam
View Torrent Info: In The Trap 2019 1080p WEB-DL H264 AC3-EVO TGx  ⭐
View Torrent Info: My Name Is Sara (2019)  720p   WEBRip   YTS   YIFY
View Torrent Info: Dosed 2019 1080p WEBRip AAC2 0 x264-NOGRP TGx  ⭐
View Torrent Info: Vivarium 2019 1080p WEB-DL DD5 1 H264-FGT
View Torrent Info: Guns Akimbo 2019 1080p WEB-DL H264 AC3-EVO TGx  ⭐
View Torrent Info: Cleanin Up The Town Remembering Ghostbusters 2019 1080p AMZN WEBRip DDP5 1 x264-ETHiCS TGx  ⭐
View Torrent Info: True History of the Kelly Gang 2019 1080p WEB-DL DDP5 1 H264-CMRG TGx  ⭐
Hot torrents
TV Torrents
View Torrent Info: Robot Chicken S10E14 Buster Olive in The Monkey Got Closer Overnight 720p AMZN WEB-DL DD+5 1 H 264-NTb  eztv
View Torrent Info: QI S18E06 720p HDTV x264-BARGE  eztv
View Torrent Info: Blindspot S05E08 HDTV x264-SVA  eztv
View Torrent Info: Counting Cars S09E05 Mike Gets Medieval 720p WEB h264-TREVASKiSTV  eztv
View Torrent Info: Marvels Agents of S H I E L D S07E06 720p HDTV x264-AVS  eztv
View Torrent Info: The 100 S07E07 720p HDTV x264-AVS  eztv
View Torrent Info: Deadliest Catch S16E12 Dutch Harbor Double Cross DISC WEB-DL AAC2 0 x264-BOOP  eztv
View Torrent Info: Robot Chicken S10E13 Buster Olive in The Monkey Got Closer Overnight 720p AMZN WEB-DL DD+5 1 H 264-NTb  eztv
View Torrent Info: Robot Chicken S10E12 1080p WEB X264-EVO  eztv
View Torrent Info: Robot Chicken S10E11 1080p WEB X264-EVO  eztv
ExtraTorrents > Categories > Documentaries torrents > Documentary torrents


Browse Documentaries torrents

Coronavirus Explained (2020) S01 Season 1 -- released April 26-June 16, 2020 (DOCU)(1080p NF-WEBRip x265 HEVC crf22-M LsLt E-AC3-AAC 5.1)[Cømpact-cTurtle].mkv


Download torrent: Coronavirus Explained (2020) S01 Season 1 -- released April 26-June 16, 2020 (DOCU)(1080p NF-WEBRip x265 HEVC crf22-M LsLt E-AC3-AAC 5.1)[Cømpact-cTurtle].mkv Magnet link Coronavirus Explained (2020) S01 Season 1 -- released April 26-June 16, 2020 (DOCU)(1080p NF-WEBRip x265 HEVC crf22-M LsLt E-AC3-AAC 5.1)[Cømpact-cTurtle].mkv Coronavirus Explained (2020) S01 Season 1 -- released April 26-June 16, 2020 (DOCU)(1080p NF-WEBRip x265 HEVC crf22-M LsLt E-AC3-AAC 5.1)[Cømpact-cTurtle].mkv | if not working, try instead: Magnet Link
Info hash: 9BCE471B9318AFC1A19AF7E43F017FDC27A19F73
Category: Categories > Documentaries torrents > Documentary torrents
Trackers:
0    View all torrent trackers >
Health:
 seeds: 3 ,  leechers: 0
Torrent language: English
Total Size: 1.5 GB
Uploader:
Torrent added: 2020-06-21 11:36

Download Coronavirus Explained (2020) S01 Season 1 -- released April 26-June 16, 2020 (DOCU)(1080p NF-WEBRip x265 HEVC crf22-M LsLt E-AC3-AAC 5.1)[Cømpact-cTurtle].mkv torrent if not working, try downloading torrent using Download Coronavirus Explained (2020) S01 Season 1 -- released April 26-June 16, 2020 (DOCU)(1080p NF-WEBRip x265 HEVC crf22-M LsLt E-AC3-AAC 5.1)[Cømpact-cTurtle].mkv via Magnet Link




Torrent Description

Coronavirus Explained (2020)  S01 Season 1 - released April 26-June16, 2020 (DOCU) TVDb

a cTurtle Cømpact release -- x265 10bit, crf22, med preset, further adjustments, light laplacian edge filters applied, 2 audio tracks, multi-subs


S01E01 This Pandemic
S01E02 The Race for a Vaccine
S01E03 How to Cope



Code:

Source: Coronavirus.Explained.S01.1080p.NF.WEBRip.DDP5.1.x264-MIXED[rartv] (3.75 GB)


Quote:


--EPISODE 1 example--
Format                                   : Matroska
Format version                           : Version 4
File size                                : 663 MiB
Duration                                 : 26mn 15s
Overall bit rate                         : 3 530 Kbps
Movie name                               : This Pandemic
Encoded date                             : UTC 2020-06-19 20:19:01
Writing application                      : mkvmerge v46.0.0 ('No Deeper Escape') 64-bit
Writing library                          : libebml v1.3.10 + libmatroska v1.5.2

Video
ID                                       : 1
Format                                   : HEVC
Format/Info                              : High Efficiency Video Coding
Format profile                           : Main [email protected]@Main
Codec ID                                 : V_MPEGH/ISO/HEVC
Duration                                 : 26mn 14s
Bit rate                                 : 2 548 Kbps
Width                                    : 1 920 pixels
Height                                   : 1 080 pixels
Display aspect ratio                     : 16:9
Frame rate mode                          : Constant
Frame rate                               : 23.976 (24000/1001) fps
Color space                              : YUV
Chroma subsampling                       : 4:2:0
Bit depth                                : 10 bits
Bits/(Pixel*Frame)                       : 0.051
Stream size                              : 478 MiB (72%)
Title                                    : crf22 HEVC (from 7Mbps 2p AVC original)
Writing library                          : x265 3.2.1+1-b5c86a64bbbe:[Mac OS X][clang 11.0.3][64 bit] 10bit
Encoding settings                        : cpuid=1111039 / frame-threads=3 / wpp / no-pmode / no-pme / no-psnr / no-ssim / log-level=2 / input-csp=1 / input-res=1920x1080 / interlace=0 / total-frames=0 / level-idc=0 / high-tier=1 / uhd-bd=0 / ref=3 / no-allow-non-conformance / no-repeat-headers / annexb / no-aud / no-hrd / info / hash=0 / no-temporal-layers / open-gop / min-keyint=24 / keyint=240 / gop-lookahead=0 / bframes=8 / b-adapt=2 / b-pyramid / bframe-bias=0 / rc-lookahead=80 / lookahead-slices=6 / scenecut=40 / radl=0 / no-splice / no-intra-refresh / ctu=64 / min-cu-size=8 / no-rect / no-amp / max-tu-size=32 / tu-inter-depth=1 / tu-intra-depth=1 / limit-tu=0 / rdoq-level=0 / dynamic-rd=0.00 / no-ssim-rd / signhide / no-tskip / nr-intra=0 / nr-inter=0 / no-constrained-intra / no-strong-intra-smoothing / max-merge=3 / limit-refs=1 / no-limit-modes / me=1 / subme=5 / merange=57 / temporal-mvp / no-hme / weightp / no-weightb / no-analyze-src-pics / deblock=0:0 / sao / no-sao-non-deblock / rd=3 / selective-sao=4 / early-skip / rskip / no-fast-intra / no-tskip-fast / no-cu-lossless / b-intra / no-splitrd-skip / rdpenalty=0 / psy-rd=1.30 / psy-rdoq=0.00 / no-rd-refine / no-lossless / cbqpoffs=0 / crqpoffs=0 / rc=crf / crf=22.0 / qcomp=0.60 / qpstep=4 / stats-write=0 / stats-read=0 / ipratio=1.40 / pbratio=1.30 / aq-mode=4 / aq-strength=1.10 / cutree / zone-count=0 / no-strict-cbr / qg-size=32 / no-rc-grain / qpmax=69 / qpmin=0 / no-const-vbv / sar=1 / overscan=0 / videoformat=5 / range=0 / colorprim=1 / transfer=1 / colormatrix=1 / chromaloc=0 / display-window=0 / cll=0,0 / min-luma=0 / max-luma=1023 / log2-max-poc-lsb=8 / vui-timing-info / vui-hrd-info / slices=1 / no-opt-qp-pps / no-opt-ref-list-length-pps / no-multi-pass-opt-rps / scenecut-bias=0.05 / no-opt-cu-delta-qp / no-aq-motion / no-hdr / no-hdr-opt / no-dhdr10-opt / no-idr-recovery-sei / analysis-reuse-level=5 / scale-factor=0 / refine-intra=0 / refine-inter=0 / refine-mv=1 / refine-ctu-distortion=0 / no-limit-sao / ctu-info=0 / no-lowpass-dct / refine-analysis-type=0 / copy-pic=1 / max-ausize-factor=1.0 / no-dynamic-refine / no-single-sei / no-hevc-aq / no-svt / no-field / qp-adaptation-range=1.00
Language                                 : English
Default                                  : Yes
Forced                                   : No
Color range                              : Limited
Color primaries                          : BT.709
Transfer characteristics                 : BT.709
Matrix coefficients                      : BT.709

Audio #1
ID                                       : 2
Format                                   : E-AC-3
Format/Info                              : Enhanced AC-3
Commercial name                          : Dolby Digital Plus
Codec ID                                 : A_EAC3
Duration                                 : 26mn 15s
Bit rate mode                            : Constant
Bit rate                                 : 640 Kbps
Channel(s)                               : 6 channels
Channel layout                           : L R C LFE Ls Rs
Sampling rate                            : 48.0 KHz
Frame rate                               : 31.250 fps (1536 SPF)
Compression mode                         : Lossy
Stream size                              : 120 MiB (18%)
Title                                    : E-AC3 5.1 / 640kbps / original
Language                                 : English
Service kind                             : Complete Main
Default                                  : No
Forced                                   : No

Audio #2
ID                                       : 3
Format                                   : AAC LC
Format/Info                              : Advanced Audio Codec Low Complexity
Codec ID                                 : A_AAC-2
Duration                                 : 26mn 15s
Bit rate                                 : 334 Kbps
Channel(s)                               : 6 channels
Channel layout                           : C L R Ls Rs LFE
Sampling rate                            : 48.0 KHz
Frame rate                               : 46.875 fps (1024 SPF)
Compression mode                         : Lossy
Delay relative to video                  : -44ms
Stream size                              : 62.7 MiB (9%)
Title                                    : AAC 5.1 / 320kbps (from E-AC3 5.1 / 640kbps / original)
Language                                 : English
Default                                  : No
Forced                                   : No

Text #1
ID                                       : 4
Format                                   : UTF-8
Codec ID                                 : S_TEXT/UTF8
Codec ID/Info                            : UTF-8 Plain Text
Duration                                 : 20mn 7s
Bit rate                                 : 4 bps
Count of elements                        : 14
Stream size                              : 625 Bytes (0%)
Title                                    : English-Forced
Language                                 : English
Default                                  : Yes
Forced                                   : Yes

Text #2
ID                                       : 5
Format                                   : UTF-8
Codec ID                                 : S_TEXT/UTF8
Codec ID/Info                            : UTF-8 Plain Text
Duration                                 : 25mn 33s
Bit rate                                 : 126 bps
Count of elements                        : 451
Stream size                              : 23.6 KiB (0%)
Title                                    : English
Language                                 : English
Default                                  : No
Forced                                   : No

Text #3
ID                                       : 6
Format                                   : UTF-8
Codec ID                                 : S_TEXT/UTF8
Codec ID/Info                            : UTF-8 Plain Text
Duration                                 : 25mn 7s
Bit rate                                 : 175 bps
Count of elements                        : 444
Stream size                              : 32.3 KiB (0%)
Title                                    : Arabic
Language                                 : Arabic
Default                                  : No
Forced                                   : No

Text #4
ID                                       : 7
Format                                   : UTF-8
Codec ID                                 : S_TEXT/UTF8
Codec ID/Info                            : UTF-8 Plain Text
Duration                                 : 25mn 49s
Bit rate                                 : 117 bps
Count of elements                        : 432
Stream size                              : 22.2 KiB (0%)
Title                                    : Brazilian Portuguese
Language                                 : Portuguese
Default                                  : No
Forced                                   : No

Text #5
ID                                       : 8
Format                                   : UTF-8
Codec ID                                 : S_TEXT/UTF8
Codec ID/Info                            : UTF-8 Plain Text
Duration                                 : 25mn 49s
Bit rate                                 : 115 bps
Count of elements                        : 441
Stream size                              : 21.8 KiB (0%)
Title                                    : Castilian
Language                                 : Spanish
Default                                  : No
Forced                                   : No

Text #6
ID                                       : 9
Format                                   : UTF-8
Codec ID                                 : S_TEXT/UTF8
Codec ID/Info                            : UTF-8 Plain Text
Duration                                 : 25mn 7s
Bit rate                                 : 97 bps
Count of elements                        : 444
Stream size                              : 17.9 KiB (0%)
Title                                    : Chinese Simplified
Language                                 : Chinese
Default                                  : No
Forced                                   : No

Text #7
ID                                       : 10
Format                                   : UTF-8
Codec ID                                 : S_TEXT/UTF8
Codec ID/Info                            : UTF-8 Plain Text
Duration                                 : 25mn 7s
Bit rate                                 : 110 bps
Count of elements                        : 526
Stream size                              : 20.4 KiB (0%)
Title                                    : Chinese Traditional
Language                                 : Chinese
Default                                  : No
Forced                                   : No

Text #8
ID                                       : 11
Format                                   : UTF-8
Codec ID                                 : S_TEXT/UTF8
Codec ID/Info                            : UTF-8 Plain Text
Duration                                 : 25mn 49s
Bit rate                                 : 121 bps
Count of elements                        : 416
Stream size                              : 22.9 KiB (0%)
Title                                    : Czech
Language                                 : Czech
Default                                  : No
Forced                                   : No

Text #9
ID                                       : 12
Format                                   : UTF-8
Codec ID                                 : S_TEXT/UTF8
Codec ID/Info                            : UTF-8 Plain Text
Duration                                 : 25mn 49s
Bit rate                                 : 104 bps
Count of elements                        : 426
Stream size                              : 19.8 KiB (0%)
Title                                    : Danish
Language                                 : Danish
Default                                  : No
Forced                                   : No

Text #10
ID                                       : 13
Format                                   : UTF-8
Codec ID                                 : S_TEXT/UTF8
Codec ID/Info                            : UTF-8 Plain Text
Duration                                 : 25mn 49s
Bit rate                                 : 105 bps
Count of elements                        : 422
Stream size                              : 20.0 KiB (0%)
Title                                    : Dutch
Language                                 : Dutch
Default                                  : No
Forced                                   : No

Text #11
ID                                       : 14
Format                                   : UTF-8
Codec ID                                 : S_TEXT/UTF8
Codec ID/Info                            : UTF-8 Plain Text
Duration                                 : 25mn 49s
Bit rate                                 : 115 bps
Count of elements                        : 401
Stream size                              : 21.9 KiB (0%)
Title                                    : Finnish
Language                                 : Finnish
Default                                  : No
Forced                                   : No

Text #12
ID                                       : 15
Format                                   : UTF-8
Codec ID                                 : S_TEXT/UTF8
Codec ID/Info                            : UTF-8 Plain Text
Duration                                 : 25mn 49s
Bit rate                                 : 121 bps
Count of elements                        : 432
Stream size                              : 22.9 KiB (0%)
Title                                    : French
Language                                 : French
Default                                  : No
Forced                                   : No

Text #13
ID                                       : 16
Format                                   : UTF-8
Codec ID                                 : S_TEXT/UTF8
Codec ID/Info                            : UTF-8 Plain Text
Duration                                 : 25mn 49s
Bit rate                                 : 129 bps
Count of elements                        : 452
Stream size                              : 24.5 KiB (0%)
Title                                    : German
Language                                 : German
Default                                  : No
Forced                                   : No

Text #14
ID                                       : 17
Format                                   : UTF-8
Codec ID                                 : S_TEXT/UTF8
Codec ID/Info                            : UTF-8 Plain Text
Duration                                 : 25mn 49s
Bit rate                                 : 198 bps
Count of elements                        : 429
Stream size                              : 37.6 KiB (0%)
Title                                    : Greek
Language                                 : Greek
Default                                  : No
Forced                                   : No

Text #15
ID                                       : 18
Format                                   : UTF-8
Codec ID                                 : S_TEXT/UTF8
Codec ID/Info                            : UTF-8 Plain Text
Duration                                 : 25mn 49s
Bit rate                                 : 170 bps
Count of elements                        : 494
Stream size                              : 32.3 KiB (0%)
Title                                    : Hebrew
Language                                 : Hebrew
Default                                  : No
Forced                                   : No

Text #16
ID                                       : 19
Format                                   : UTF-8
Codec ID                                 : S_TEXT/UTF8
Codec ID/Info                            : UTF-8 Plain Text
Duration                                 : 25mn 49s
Bit rate                                 : 125 bps
Count of elements                        : 435
Stream size                              : 23.8 KiB (0%)
Title                                    : Hungarian
Language                                 : Hungarian
Default                                  : No
Forced                                   : No

Text #17
ID                                       : 20
Format                                   : UTF-8
Codec ID                                 : S_TEXT/UTF8
Codec ID/Info                            : UTF-8 Plain Text
Duration                                 : 25mn 49s
Bit rate                                 : 120 bps
Count of elements                        : 446
Stream size                              : 22.8 KiB (0%)
Title                                    : Indonesian
Language                                 : Indonesian
Default                                  : No
Forced                                   : No

Text #18
ID                                       : 21
Format                                   : UTF-8
Codec ID                                 : S_TEXT/UTF8
Codec ID/Info                            : UTF-8 Plain Text
Duration                                 : 25mn 49s
Bit rate                                 : 121 bps
Count of elements                        : 444
Stream size                              : 23.0 KiB (0%)
Title                                    : Italian
Language                                 : Italian
Default                                  : No
Forced                                   : No

Text #19
ID                                       : 22
Format                                   : UTF-8
Codec ID                                 : S_TEXT/UTF8
Codec ID/Info                            : UTF-8 Plain Text
Duration                                 : 25mn 48s
Bit rate                                 : 142 bps
Count of elements                        : 491
Stream size                              : 27.0 KiB (0%)
Title                                    : Japanese
Language                                 : Japanese
Default                                  : No
Forced                                   : No

Text #20
ID                                       : 23
Format                                   : UTF-8
Codec ID                                 : S_TEXT/UTF8
Codec ID/Info                            : UTF-8 Plain Text
Duration                                 : 25mn 49s
Bit rate                                 : 131 bps
Count of elements                        : 462
Stream size                              : 24.9 KiB (0%)
Title                                    : Korean
Language                                 : Korean
Default                                  : No
Forced                                   : No

Text #21
ID                                       : 24
Format                                   : UTF-8
Codec ID                                 : S_TEXT/UTF8
Codec ID/Info                            : UTF-8 Plain Text
Duration                                 : 25mn 49s
Bit rate                                 : 109 bps
Count of elements                        : 387
Stream size                              : 20.6 KiB (0%)
Title                                    : Norwegian
Language                                 : Norwegian
Default                                  : No
Forced                                   : No

Text #22
ID                                       : 25
Format                                   : UTF-8
Codec ID                                 : S_TEXT/UTF8
Codec ID/Info                            : UTF-8 Plain Text
Duration                                 : 25mn 48s
Bit rate                                 : 114 bps
Count of elements                        : 437
Stream size                              : 21.7 KiB (0%)
Title                                    : Polish
Language                                 : Polish
Default                                  : No
Forced                                   : No

Text #23
ID                                       : 26
Format                                   : UTF-8
Codec ID                                 : S_TEXT/UTF8
Codec ID/Info                            : UTF-8 Plain Text
Duration                                 : 25mn 49s
Bit rate                                 : 125 bps
Count of elements                        : 530
Stream size                              : 23.7 KiB (0%)
Title                                    : Portuguese
Language                                 : Portuguese
Default                                  : No
Forced                                   : No

Text #24
ID                                       : 27
Format                                   : UTF-8
Codec ID                                 : S_TEXT/UTF8
Codec ID/Info                            : UTF-8 Plain Text
Duration                                 : 25mn 7s
Bit rate                                 : 139 bps
Count of elements                        : 449
Stream size                              : 25.7 KiB (0%)
Title                                    : Romanian
Language                                 : Romanian
Default                                  : No
Forced                                   : No

Text #25
ID                                       : 28
Format                                   : UTF-8
Codec ID                                 : S_TEXT/UTF8
Codec ID/Info                            : UTF-8 Plain Text
Duration                                 : 25mn 49s
Bit rate                                 : 194 bps
Count of elements                        : 459
Stream size                              : 36.8 KiB (0%)
Title                                    : Russian
Language                                 : Russian
Default                                  : No
Forced                                   : No

Text #26
ID                                       : 29
Format                                   : UTF-8
Codec ID                                 : S_TEXT/UTF8
Codec ID/Info                            : UTF-8 Plain Text
Duration                                 : 25mn 49s
Bit rate                                 : 121 bps
Count of elements                        : 450
Stream size                              : 23.0 KiB (0%)
Title                                    : Spanish
Language                                 : Spanish
Default                                  : No
Forced                                   : No

Text #27
ID                                       : 30
Format                                   : UTF-8
Codec ID                                 : S_TEXT/UTF8
Codec ID/Info                            : UTF-8 Plain Text
Duration                                 : 25mn 49s
Bit rate                                 : 118 bps
Count of elements                        : 402
Stream size                              : 22.3 KiB (0%)
Title                                    : Swedish
Language                                 : Swedish
Default                                  : No
Forced                                   : No

Text #28
ID                                       : 31
Format                                   : UTF-8
Codec ID                                 : S_TEXT/UTF8
Codec ID/Info                            : UTF-8 Plain Text
Duration                                 : 25mn 49s
Bit rate                                 : 275 bps
Count of elements                        : 446
Stream size                              : 52.2 KiB (0%)
Title                                    : Thai
Language                                 : Thai
Default                                  : No
Forced                                   : No

Text #29
ID                                       : 32
Format                                   : UTF-8
Codec ID                                 : S_TEXT/UTF8
Codec ID/Info                            : UTF-8 Plain Text
Duration                                 : 25mn 49s
Bit rate                                 : 119 bps
Count of elements                        : 413
Stream size                              : 22.7 KiB (0%)
Title                                    : Turkish
Language                                 : Turkish
Default                                  : No
Forced                                   : No

Text #30
ID                                       : 33
Format                                   : UTF-8
Codec ID                                 : S_TEXT/UTF8
Codec ID/Info                            : UTF-8 Plain Text
Duration                                 : 25mn 7s
Bit rate                                 : 156 bps
Count of elements                        : 439
Stream size                              : 28.9 KiB (0%)
Title                                    : Vietnamese
Language                                 : Vietnamese
Default                                  : No
Forced                                   : No

Menu
00:00:00.000                             : :Chapter 01
00:05:00.000                             : :Chapter 02
00:10:00.000                             : :Chapter 03
00:15:00.000                             : :Chapter 04
00:20:00.000                             : :Chapter 05
00:25:00.000                             : :Chapter 06



Download Coronavirus Explained (2020) S01 Season 1 -- released April 26-June 16, 2020 (DOCU)(1080p NF-WEBRip x265 HEVC crf22-M LsLt E-AC3-AAC 5.1)[Cømpact-cTurtle].mkv torrent




Home - Browse Torrents ExtraTorrents is in compliance with copyrights
2006-2020 ExtraTorrents