ExtraTorrents - The Largest Bittorent System Login   |    Register
Most searched
Hot torrents
Movie Torrents
View Torrent Info: Gabriels Inferno Part II 2020 1080p WEB-DL H264 AC3-EVO TGx  ⭐
View Torrent Info: Black Is King (2020)  720p   WEBRip   YTS   YIFY
View Torrent Info: The Kissing Booth 2 2020 1080p NF WEB-DL HIN-ENG DDP5 1 HDR HEVC-Telly
View Torrent Info: Palm Springs 2020 1080p HULU WEB-DL H264 AC3-EVO TGx  ⭐
View Torrent Info: For the Love of Jessee (2020) 720p WEB DL - X264 - AAC - E-Subs - DUSIcTv
View Torrent Info: Diving With Dolphins 2020 720p DSNP WEB-DL DDP5 1-BabyTorrent
View Torrent Info: In The Trap 2019 1080p WEB-DL H264 AC3-EVO TGx  ⭐
View Torrent Info: Guns Akimbo 2019 1080p WEB-DL H264 AC3-EVO TGx  ⭐
View Torrent Info: Cleanin Up The Town Remembering Ghostbusters 2019 1080p AMZN WEBRip DDP5 1 x264-ETHiCS TGx  ⭐
View Torrent Info: True History of the Kelly Gang 2019 1080p WEB-DL DDP5 1 H264-CMRG TGx  ⭐
Hot torrents
TV Torrents
View Torrent Info: Bering Sea Gold S12E13 The Ice Mine Cometh WEB H264-TXB  eztv
View Torrent Info: QI S18E10 HDTV x264-LiNKLE  eztv
View Torrent Info: Marvels Agents of S H I E L D S07E10 720p HDTV x264-TWERK TGx  ⭐
View Torrent Info: Deadliest Catch S16E16 Bering Sea Wrecking Ball 720p WEB H264-TXB TGx  ⭐
View Torrent Info: American Dad S17E16 First Do No Farm 720p AMZN WEBRip DDP5 1 x264-CtrlHD TGx  ⭐
View Torrent Info: Robot Chicken S10E20 Endgame HDTV x264-CRiMSON TGx  ⭐
View Torrent Info: Robot Chicken S10E19 Babe Hollytree in I Wish One Person Had Died 720p HDTV x264-CRiMSON TGx  ⭐
View Torrent Info: Wentworth S08E01 1080p WEBRip AAC2 0 x264-NOGRP TGx  ⭐
View Torrent Info: Bering Sea Gold S12E12 How It All Pans Out WEB H264-TXB TGx  ⭐
View Torrent Info: Blindspot S05E11 720p HDTV x264-TWERK TGx  ⭐
ExtraTorrents > Categories > Documentaries torrents > Documentary torrents


Browse Documentaries torrents

Hitler's Holocaust Railways with Chris Tarrant x265 [DVD RIP]


Download torrent: Hitler's Holocaust Railways with Chris Tarrant x265 [DVD RIP] Magnet link Hitler's Holocaust Railways with Chris Tarrant x265 [DVD RIP] Hitler's Holocaust Railways with Chris Tarrant x265 [DVD RIP] | if not working, try instead: Magnet Link
Info hash: 65467E4C1ADC4EA211247E76A550D28E25A3EAD6
Category: Categories > Documentaries torrents > Documentary torrents
Trackers:
15    View all torrent trackers >
Health:
 seeds: 24 ,  leechers: 7
Torrent language: English
Total Size: 1.5 GB
Uploader:
Torrent added: 2020-07-28 00:19

Download Hitler's Holocaust Railways with Chris Tarrant x265 [DVD RIP] torrent if not working, try downloading torrent using Download Hitler's Holocaust Railways with Chris Tarrant x265 [DVD RIP] via Magnet Link




Torrent Description



Chris Tarrant explores the role of the German railways in the Nazi Holocaust of WW2

Chris Tarrant goes on a personal journey to explore the darkest chapter in the history of the railways, their role in the Nazi Holocaust of WWII. Traveling through three countries, Chris explores the history from the first anti-Jewish laws and the Nazi’s quest to build the world’s most powerful railway of war… to the eventual use of that railway network to transport millions to their deaths. Chris meets holocaust survivors as they retrace their wartime journeys, including Helga Weissova, who as a young girl recorded her experiences in the horrifying Terezin Ghetto with drawings and in her diary. In Poland, he meets Arek Hersh, a former child slave who escaped death countless times in the Ghetto and at Auschwitz where he and Chris travel together to face up to the true horror of the Holocaust.





MEDIA INFO
Format : Matroska
File size : 1.45 GiB
Duration : 1 h 6 min
Overall bit rate : 3 119 kb/s

Video
Format : HEVC
Duration : 1 h 6 min
Bit rate : 5 782 kb/s
Width : 720 pixels
Height : 576 pixels
Display aspect ratio : 16:9
Frame rate mode : Variable
Frame rate : 25.000 FPS
Standard : PAL
Color space : YUV
Stream size : 2.70 GiB
Language : English
Original source medium : DVD-Video

Audio
Format : AC-3
Commercial name : Dolby Digital
Duration : 1 h 6 min
Bit rate mode : Constant
Bit rate : 224 kb/s
Channel(s) : 2 channels
Channel layout : L R
Sampling rate : 48.0 kHz
Compression mode : Lossy
Stream size : 107 MiB (7%)
Title : Stereo
Language : English
Original source medium : DVD-Video


Download Hitler's Holocaust Railways with Chris Tarrant x265 [DVD RIP] torrent




Home - Browse Torrents ExtraTorrents is in compliance with copyrights
2006-2020 ExtraTorrents