ExtraTorrents - The Largest Bittorent System Login   |    Register
Most searched
Hot torrents
Movie Torrents
View Torrent Info: The Kissing Booth 2 2020 1080p NF WEB-DL HIN-ENG DDP5 1 HDR HEVC-Telly
View Torrent Info: First Cow 2020 1080p WEB-DL H264 AC3-EVO TGx  ⭐
View Torrent Info: Palm Springs 2020 1080p HULU WEB-DL H264 AC3-EVO TGx  ⭐
View Torrent Info: For the Love of Jessee (2020) 720p WEB DL - X264 - AAC - E-Subs - DUSIcTv
View Torrent Info: Diving With Dolphins 2020 720p DSNP WEB-DL DDP5 1-BabyTorrent
View Torrent Info: The Elfkins Baking a Difference 2019 720p BluRay HEVC x265-RMTeam
View Torrent Info: In The Trap 2019 1080p WEB-DL H264 AC3-EVO TGx  ⭐
View Torrent Info: Guns Akimbo 2019 1080p WEB-DL H264 AC3-EVO TGx  ⭐
View Torrent Info: Cleanin Up The Town Remembering Ghostbusters 2019 1080p AMZN WEBRip DDP5 1 x264-ETHiCS TGx  ⭐
View Torrent Info: True History of the Kelly Gang 2019 1080p WEB-DL DDP5 1 H264-CMRG TGx  ⭐
Hot torrents
TV Torrents
View Torrent Info: QI S18E10 HDTV x264-LiNKLE  eztv
View Torrent Info: QI S18E09 HDTV x264-LiNKLE TGx  ⭐
View Torrent Info: Marvels Agents of S H I E L D S07E10 720p HDTV x264-TWERK TGx  ⭐
View Torrent Info: Deadliest Catch S16E16 Bering Sea Wrecking Ball 720p WEB H264-TXB TGx  ⭐
View Torrent Info: American Dad S17E16 First Do No Farm 720p AMZN WEBRip DDP5 1 x264-CtrlHD TGx  ⭐
View Torrent Info: Robot Chicken S10E20 Endgame HDTV x264-CRiMSON TGx  ⭐
View Torrent Info: Robot Chicken S10E19 Babe Hollytree in I Wish One Person Had Died 720p HDTV x264-CRiMSON TGx  ⭐
View Torrent Info: Wentworth S08E01 1080p WEBRip AAC2 0 x264-NOGRP TGx  ⭐
View Torrent Info: Bering Sea Gold S12E12 How It All Pans Out WEB H264-TXB TGx  ⭐
View Torrent Info: Blindspot S05E11 720p HDTV x264-TWERK TGx  ⭐
ExtraTorrents > Categories > Documentaries torrents > Documentary torrents


Browse Documentaries torrents

One Day At Disney (2019)(DOCU)(1080p WEBRip x265 HEVC crf22-M LsLt E-AC3-AAC 5.1)[Cømpact-cTurtle].mkv


Download torrent: One Day At Disney (2019)(DOCU)(1080p WEBRip x265 HEVC crf22-M LsLt E-AC3-AAC 5.1)[Cømpact-cTurtle].mkv Magnet link One Day At Disney (2019)(DOCU)(1080p WEBRip x265 HEVC crf22-M LsLt E-AC3-AAC 5.1)[Cømpact-cTurtle].mkv One Day At Disney (2019)(DOCU)(1080p WEBRip x265 HEVC crf22-M LsLt E-AC3-AAC 5.1)[Cømpact-cTurtle].mkv | if not working, try instead: Magnet Link
Info hash: 86D518CBBD1843D239F689D5BC86995C8AF98CC4
Category: Categories > Documentaries torrents > Documentary torrents
Trackers:
0    View all torrent trackers >
Health:
 seeds: 17 ,  leechers: 1
Torrent language: English
Total Size: 1.5 GB
Uploader:
Torrent added: 2020-07-29 00:52

Download One Day At Disney (2019)(DOCU)(1080p WEBRip x265 HEVC crf22-M LsLt E-AC3-AAC 5.1)[Cømpact-cTurtle].mkv torrent if not working, try downloading torrent using Download One Day At Disney (2019)(DOCU)(1080p WEBRip x265 HEVC crf22-M LsLt E-AC3-AAC 5.1)[Cømpact-cTurtle].mkv via Magnet Link




Torrent Description

One Day At Disney (2019) TMDb

a cTurtle Cømpact release -- x265 10bit, crf22, med preset, further adjustments, edge filters applied, 2 audio tracks, multi-subs





Code:

Source:one.day.at.disney.2019.1080p.web.h264-walt.mkv (3.82 GB)


Quote:


Format                                   : Matroska
Format version                           : Version 4
File size                                : 1.47 GiB
Duration                                 : 59mn 3s
Overall bit rate                         : 3 570 Kbps
Movie name                               : One Day At Disney (2019)
Encoded date                             : UTC 2020-07-27 14:56:51
Writing application                      : mkvmerge v48.0.0 ('Fortress Around Your Heart') 64-bit
Writing library                          : libebml v1.4.0 + libmatroska v1.6.0

Video
ID                                       : 1
Format                                   : HEVC
Format/Info                              : High Efficiency Video Coding
Format profile                           : Main [email protected]@Main
Codec ID                                 : V_MPEGH/ISO/HEVC
Duration                                 : 59mn 3s
Bit rate                                 : 2 458 Kbps
Width                                    : 1 920 pixels
Height                                   : 1 080 pixels
Display aspect ratio                     : 16:9
Frame rate mode                          : Constant
Frame rate                               : 23.976 (24000/1001) fps
Color space                              : YUV
Chroma subsampling                       : 4:2:0
Bit depth                                : 10 bits
Bits/(Pixel*Frame)                       : 0.049
Stream size                              : 1.01 GiB (69%)
Writing library                          : x265 3.2.1+1-b5c86a64bbbe:[Mac OS X][clang 11.0.3][64 bit] 10bit
Encoding settings                        : cpuid=1111039 / frame-threads=3 / wpp / no-pmode / no-pme / no-psnr / no-ssim / log-level=2 / input-csp=1 / input-res=1920x1080 / interlace=0 / total-frames=0 / level-idc=0 / high-tier=1 / uhd-bd=0 / ref=3 / no-allow-non-conformance / no-repeat-headers / annexb / no-aud / no-hrd / info / hash=0 / no-temporal-layers / open-gop / min-keyint=24 / keyint=240 / gop-lookahead=0 / bframes=8 / b-adapt=2 / b-pyramid / bframe-bias=0 / rc-lookahead=80 / lookahead-slices=6 / scenecut=40 / radl=0 / no-splice / no-intra-refresh / ctu=64 / min-cu-size=8 / no-rect / no-amp / max-tu-size=32 / tu-inter-depth=1 / tu-intra-depth=1 / limit-tu=0 / rdoq-level=0 / dynamic-rd=0.00 / no-ssim-rd / signhide / no-tskip / nr-intra=0 / nr-inter=0 / no-constrained-intra / no-strong-intra-smoothing / max-merge=3 / limit-refs=1 / no-limit-modes / me=1 / subme=5 / merange=57 / temporal-mvp / no-hme / weightp / no-weightb / no-analyze-src-pics / deblock=0:0 / sao / no-sao-non-deblock / rd=3 / selective-sao=4 / early-skip / rskip / no-fast-intra / no-tskip-fast / no-cu-lossless / b-intra / no-splitrd-skip / rdpenalty=0 / psy-rd=1.30 / psy-rdoq=0.00 / no-rd-refine / no-lossless / cbqpoffs=0 / crqpoffs=0 / rc=crf / crf=22.0 / qcomp=0.60 / qpstep=4 / stats-write=0 / stats-read=0 / ipratio=1.40 / pbratio=1.30 / aq-mode=4 / aq-strength=1.10 / cutree / zone-count=0 / no-strict-cbr / qg-size=32 / no-rc-grain / qpmax=69 / qpmin=0 / no-const-vbv / sar=1 / overscan=0 / videoformat=5 / range=0 / colorprim=1 / transfer=1 / colormatrix=1 / chromaloc=0 / display-window=0 / cll=0,0 / min-luma=0 / max-luma=1023 / log2-max-poc-lsb=8 / vui-timing-info / vui-hrd-info / slices=1 / no-opt-qp-pps / no-opt-ref-list-length-pps / no-multi-pass-opt-rps / scenecut-bias=0.05 / no-opt-cu-delta-qp / no-aq-motion / no-hdr / no-hdr-opt / no-dhdr10-opt / no-idr-recovery-sei / analysis-reuse-level=5 / scale-factor=0 / refine-intra=0 / refine-inter=0 / refine-mv=1 / refine-ctu-distortion=0 / no-limit-sao / ctu-info=0 / no-lowpass-dct / refine-analysis-type=0 / copy-pic=1 / max-ausize-factor=1.0 / no-dynamic-refine / no-single-sei / no-hevc-aq / no-svt / no-field / qp-adaptation-range=1.00
Language                                 : English
Default                                  : Yes
Forced                                   : No
Color range                              : Limited
Color primaries                          : BT.709
Transfer characteristics                 : BT.709
Matrix coefficients                      : BT.709

Audio #1
ID                                       : 2
Format                                   : E-AC-3 JOC
Format/Info                              : Enhanced AC-3 with Joint Object Coding
Commercial name                          : Dolby Digital Plus with Dolby Atmos
Codec ID                                 : A_EAC3
Duration                                 : 59mn 3s
Bit rate mode                            : Constant
Bit rate                                 : 768 Kbps
Channel(s)                               : 6 channels
Channel layout                           : L R C LFE Ls Rs
Sampling rate                            : 48.0 KHz
Frame rate                               : 31.250 fps (1536 SPF)
Compression mode                         : Lossy
Stream size                              : 324 MiB (22%)
Title                                    : E-AC3 5.1 / 768kbps / original
Language                                 : English
Service kind                             : Complete Main
Default                                  : No
Forced                                   : No
Complexity index                         : 16
Number of dynamic objects                : 15
Bed channel count                        : 1 channel
Bed channel configuration                : LFE

Audio #2
ID                                       : 3
Format                                   : AAC LC
Format/Info                              : Advanced Audio Codec Low Complexity
Codec ID                                 : A_AAC-2
Duration                                 : 59mn 3s
Bit rate                                 : 339 Kbps
Channel(s)                               : 6 channels
Channel layout                           : C L R Ls Rs LFE
Sampling rate                            : 48.0 KHz
Frame rate                               : 46.875 fps (1024 SPF)
Compression mode                         : Lossy
Delay relative to video                  : -44ms
Stream size                              : 143 MiB (10%)
Title                                    : AAC 5.1 / 320kbps (from E-AC3 5.1 / 768kbps / original)
Language                                 : English
Default                                  : No
Forced                                   : No

Text #1
ID                                       : 4
Format                                   : UTF-8
Codec ID                                 : S_TEXT/UTF8
Codec ID/Info                            : UTF-8 Plain Text
Duration                                 : 58mn 52s
Bit rate                                 : 99 bps
Count of elements                        : 961
Stream size                              : 43.1 KiB (0%)
Title                                    : Dansk
Language                                 : Danish
Default                                  : No
Forced                                   : No

Text #2
ID                                       : 5
Format                                   : UTF-8
Codec ID                                 : S_TEXT/UTF8
Codec ID/Info                            : UTF-8 Plain Text
Duration                                 : 58mn 52s
Bit rate                                 : 93 bps
Count of elements                        : 962
Stream size                              : 40.2 KiB (0%)
Title                                    : Deutsch
Language                                 : German
Default                                  : No
Forced                                   : No

Text #3
ID                                       : 6
Format                                   : UTF-8
Codec ID                                 : S_TEXT/UTF8
Codec ID/Info                            : UTF-8 Plain Text
Duration                                 : 58mn 17s
Bit rate                                 : 114 bps
Count of elements                        : 981
Stream size                              : 48.8 KiB (0%)
Title                                    : English (SDH)
Language                                 : English
Default                                  : No
Forced                                   : No

Text #4
ID                                       : 7
Format                                   : UTF-8
Codec ID                                 : S_TEXT/UTF8
Codec ID/Info                            : UTF-8 Plain Text
Duration                                 : 58mn 54s
Bit rate                                 : 100 bps
Count of elements                        : 972
Stream size                              : 43.3 KiB (0%)
Title                                    : Español (Latinoamericano)
Language                                 : Spanish
Default                                  : No
Forced                                   : No

Text #5
ID                                       : 8
Format                                   : UTF-8
Codec ID                                 : S_TEXT/UTF8
Codec ID/Info                            : UTF-8 Plain Text
Duration                                 : 58mn 54s
Bit rate                                 : 106 bps
Count of elements                        : 970
Stream size                              : 46.1 KiB (0%)
Title                                    : Español
Language                                 : Spanish
Default                                  : No
Forced                                   : No

Text #6
ID                                       : 9
Format                                   : UTF-8
Codec ID                                 : S_TEXT/UTF8
Codec ID/Info                            : UTF-8 Plain Text
Duration                                 : 58mn 54s
Bit rate                                 : 93 bps
Count of elements                        : 971
Stream size                              : 40.3 KiB (0%)
Title                                    : Suomi
Language                                 : Finnish
Default                                  : No
Forced                                   : No

Text #7
ID                                       : 10
Format                                   : UTF-8
Codec ID                                 : S_TEXT/UTF8
Codec ID/Info                            : UTF-8 Plain Text
Duration                                 : 58mn 54s
Bit rate                                 : 114 bps
Count of elements                        : 975
Stream size                              : 49.2 KiB (0%)
Title                                    : Français
Language                                 : French
Default                                  : No
Forced                                   : No

Text #8
ID                                       : 11
Format                                   : UTF-8
Codec ID                                 : S_TEXT/UTF8
Codec ID/Info                            : UTF-8 Plain Text
Duration                                 : 58mn 54s
Bit rate                                 : 100 bps
Count of elements                        : 972
Stream size                              : 43.5 KiB (0%)
Title                                    : Italiano
Language                                 : Italian
Default                                  : No
Forced                                   : No

Text #9
ID                                       : 12
Format                                   : UTF-8
Codec ID                                 : S_TEXT/UTF8
Codec ID/Info                            : UTF-8 Plain Text
Duration                                 : 58mn 54s
Bit rate                                 : 89 bps
Count of elements                        : 956
Stream size                              : 38.8 KiB (0%)
Title                                    : Nederlands
Language                                 : Dutch
Default                                  : No
Forced                                   : No

Text #10
ID                                       : 13
Format                                   : UTF-8
Codec ID                                 : S_TEXT/UTF8
Codec ID/Info                            : UTF-8 Plain Text
Duration                                 : 58mn 52s
Bit rate                                 : 91 bps
Count of elements                        : 968
Stream size                              : 39.6 KiB (0%)
Title                                    : Norsk
Language                                 : Norwegian
Default                                  : No
Forced                                   : No

Text #11
ID                                       : 14
Format                                   : UTF-8
Codec ID                                 : S_TEXT/UTF8
Codec ID/Info                            : UTF-8 Plain Text
Duration                                 : 58mn 54s
Bit rate                                 : 97 bps
Count of elements                        : 977
Stream size                              : 41.9 KiB (0%)
Title                                    : Polski
Language                                 : Polish
Default                                  : No
Forced                                   : No

Text #12
ID                                       : 15
Format                                   : UTF-8
Codec ID                                 : S_TEXT/UTF8
Codec ID/Info                            : UTF-8 Plain Text
Duration                                 : 58mn 52s
Bit rate                                 : 105 bps
Count of elements                        : 972
Stream size                              : 45.7 KiB (0%)
Title                                    : Português
Language                                 : Portuguese
Default                                  : No
Forced                                   : No

Text #13
ID                                       : 16
Format                                   : UTF-8
Codec ID                                 : S_TEXT/UTF8
Codec ID/Info                            : UTF-8 Plain Text
Duration                                 : 58mn 54s
Bit rate                                 : 102 bps
Count of elements                        : 969
Stream size                              : 44.1 KiB (0%)
Title                                    : Português (Brasil)
Language                                 : Portuguese
Default                                  : No
Forced                                   : No

Text #14
ID                                       : 17
Format                                   : UTF-8
Codec ID                                 : S_TEXT/UTF8
Codec ID/Info                            : UTF-8 Plain Text
Duration                                 : 58mn 54s
Bit rate                                 : 102 bps
Count of elements                        : 972
Stream size                              : 44.2 KiB (0%)
Title                                    : Svenska
Language                                 : Swedish
Default                                  : No
Forced                                   : No



Download One Day At Disney (2019)(DOCU)(1080p WEBRip x265 HEVC crf22-M LsLt E-AC3-AAC 5.1)[Cømpact-cTurtle].mkv torrent




Home - Browse Torrents ExtraTorrents is in compliance with copyrights
2006-2020 ExtraTorrents