ExtraTorrents - The Largest Bittorent System Login   |    Register
Most searched
Hot torrents
Movie Torrents
View Torrent Info: Anelka: Misunderstood (2020)  720p   WEBRip   YTS   YIFY
View Torrent Info: Gabriels Inferno Part II 2020 1080p WEB-DL H264 AC3-EVO TGx  ⭐
View Torrent Info: Black Is King (2020)  720p   WEBRip   YTS   YIFY
View Torrent Info: The Kissing Booth 2 2020 1080p NF WEB-DL HIN-ENG DDP5 1 HDR HEVC-Telly
View Torrent Info: Palm Springs 2020 1080p HULU WEB-DL H264 AC3-EVO TGx  ⭐
View Torrent Info: For the Love of Jessee (2020) 720p WEB DL - X264 - AAC - E-Subs - DUSIcTv
View Torrent Info: Diving With Dolphins 2020 720p DSNP WEB-DL DDP5 1-BabyTorrent
View Torrent Info: In The Trap 2019 1080p WEB-DL H264 AC3-EVO TGx  ⭐
View Torrent Info: Cleanin Up The Town Remembering Ghostbusters 2019 1080p AMZN WEBRip DDP5 1 x264-ETHiCS TGx  ⭐
View Torrent Info: True History of the Kelly Gang 2019 1080p WEB-DL DDP5 1 H264-CMRG TGx  ⭐
Hot torrents
TV Torrents
View Torrent Info: Marvels Agents of S H I E L D S07E11 720p HDTV x264-KILLERS  eztv
View Torrent Info: The 100 S07E10 720p HDTV x264-SVA TGx  ⭐
View Torrent Info: Wentworth S08E02 1080p HDTV x264-Nemo  eztv
View Torrent Info: Deadliest Catch S16E17 Danger Close WEB H264-TXB TGx  ⭐
View Torrent Info: Bering Sea Gold S12E13 The Ice Mine Cometh WEB H264-TXB  eztv
View Torrent Info: QI S18E10 HDTV x264-LiNKLE  eztv
View Torrent Info: Marvels Agents of S H I E L D S07E10 720p HDTV x264-TWERK TGx  ⭐
View Torrent Info: Deadliest Catch S16E16 Bering Sea Wrecking Ball 720p WEB H264-TXB TGx  ⭐
View Torrent Info: American Dad S17E16 First Do No Farm 720p AMZN WEBRip DDP5 1 x264-CtrlHD TGx  ⭐
View Torrent Info: Wentworth S08E01 1080p WEBRip AAC2 0 x264-NOGRP TGx  ⭐
ExtraTorrents > Categories > Documentaries torrents > Documentary torrents


Browse Documentaries torrents

Race Against Pandemic (2020)(DOCU)(1080p WEBRip x265 HEVC crf22-M LsLt AC3-AAC 2.0)[Cømpact-cTurtle].mkv


Download torrent: Race Against Pandemic (2020)(DOCU)(1080p WEBRip x265 HEVC crf22-M LsLt AC3-AAC 2.0)[Cømpact-cTurtle].mkv Magnet link Race Against Pandemic (2020)(DOCU)(1080p WEBRip x265 HEVC crf22-M LsLt AC3-AAC 2.0)[Cømpact-cTurtle].mkv Race Against Pandemic (2020)(DOCU)(1080p WEBRip x265 HEVC crf22-M LsLt AC3-AAC 2.0)[Cømpact-cTurtle].mkv | if not working, try instead: Magnet Link
Info hash: 3A4081310DA3E902BB393B4D6D0C63DA85C2F2ED
Category: Categories > Documentaries torrents > Documentary torrents
Trackers:
0    View all torrent trackers >
Health:
 seeds: 21 ,  leechers: 5
Torrent language: English
Total Size: 928.9 MB
Uploader:
Torrent added: 2020-07-29 00:52

Download Race Against Pandemic (2020)(DOCU)(1080p WEBRip x265 HEVC crf22-M LsLt AC3-AAC 2.0)[Cømpact-cTurtle].mkv torrent if not working, try downloading torrent using Download Race Against Pandemic (2020)(DOCU)(1080p WEBRip x265 HEVC crf22-M LsLt AC3-AAC 2.0)[Cømpact-cTurtle].mkv via Magnet Link




Torrent Description

Race Against Pandemic (2020) TMDb

a cTurtle Cømpact release -- x265 10bit, crf22, med preset, further adjustments, edge filters applied, 2 audio tracks, multi-subs




Code:

Source:Race.Against.Pandemic.2020.1080p.WEB-DL.DD2.0.H.264-NOGRP (1.72 GB)


Quote:


Format : Matroska
Format version : Version 4
File size : 929 MiB
Duration : 47mn 42s
Overall bit rate : 2 722 Kbps
Movie name : Race Against Pandemic (2020)(DOCU)
Encoded date : UTC 2020-07-18 20:27:40
Writing application : mkvmerge v48.0.0 ('Fortress Around Your Heart') 64-bit
Writing library : libebml v1.4.0 + libmatroska v1.6.0

Video
ID : 1
Format : HEVC
Format/Info : High Efficiency Video Coding
Format profile : Main [email protected]@Main
Codec ID : V_MPEGH/ISO/HEVC
Duration : 47mn 42s
Bit rate : 2 338 Kbps
Width : 1 920 pixels
Height : 1 080 pixels
Display aspect ratio : 16:9
Frame rate mode : Constant
Frame rate : 29.970 (30000/1001) fps
Color space : YUV
Chroma subsampling : 4:2:0
Bit depth : 10 bits
Bits/(Pixel*Frame) : 0.038
Stream size : 798 MiB (86%)
Title : crf22 HEVC (from 5Mbps AVC original)
Writing library : x265 3.2.1+1-b5c86a64bbbe:[Mac OS X][clang 11.0.3][64 bit] 10bit
Encoding settings : cpuid=1111039 / frame-threads=3 / wpp / no-pmode / no-pme / no-psnr / no-ssim / log-level=2 / input-csp=1 / input-res=1920x1080 / interlace=0 / total-frames=0 / level-idc=0 / high-tier=1 / uhd-bd=0 / ref=3 / no-allow-non-conformance / no-repeat-headers / annexb / no-aud / no-hrd / info / hash=0 / no-temporal-layers / open-gop / min-keyint=30 / keyint=300 / gop-lookahead=0 / bframes=8 / b-adapt=2 / b-pyramid / bframe-bias=0 / rc-lookahead=80 / lookahead-slices=6 / scenecut=40 / radl=0 / no-splice / no-intra-refresh / ctu=64 / min-cu-size=8 / no-rect / no-amp / max-tu-size=32 / tu-inter-depth=1 / tu-intra-depth=1 / limit-tu=0 / rdoq-level=0 / dynamic-rd=0.00 / no-ssim-rd / signhide / no-tskip / nr-intra=0 / nr-inter=0 / no-constrained-intra / no-strong-intra-smoothing / max-merge=3 / limit-refs=1 / no-limit-modes / me=1 / subme=5 / merange=57 / temporal-mvp / no-hme / weightp / no-weightb / no-analyze-src-pics / deblock=0:0 / sao / no-sao-non-deblock / rd=3 / selective-sao=4 / early-skip / rskip / no-fast-intra / no-tskip-fast / no-cu-lossless / b-intra / no-splitrd-skip / rdpenalty=0 / psy-rd=1.30 / psy-rdoq=0.00 / no-rd-refine / no-lossless / cbqpoffs=0 / crqpoffs=0 / rc=crf / crf=22.0 / qcomp=0.60 / qpstep=4 / stats-write=0 / stats-read=0 / ipratio=1.40 / pbratio=1.30 / aq-mode=4 / aq-strength=1.10 / cutree / zone-count=0 / no-strict-cbr / qg-size=32 / no-rc-grain / qpmax=69 / qpmin=0 / no-const-vbv / sar=1 / overscan=0 / videoformat=5 / range=0 / colorprim=1 / transfer=1 / colormatrix=1 / chromaloc=0 / display-window=0 / cll=0,0 / min-luma=0 / max-luma=1023 / log2-max-poc-lsb=8 / vui-timing-info / vui-hrd-info / slices=1 / no-opt-qp-pps / no-opt-ref-list-length-pps / no-multi-pass-opt-rps / scenecut-bias=0.05 / no-opt-cu-delta-qp / no-aq-motion / no-hdr / no-hdr-opt / no-dhdr10-opt / no-idr-recovery-sei / analysis-reuse-level=5 / scale-factor=0 / refine-intra=0 / refine-inter=0 / refine-mv=1 / refine-ctu-distortion=0 / no-limit-sao / ctu-info=0 / no-lowpass-dct / refine-analysis-type=0 / copy-pic=1 / max-ausize-factor=1.0 / no-dynamic-refine / no-single-sei / no-hevc-aq / no-svt / no-field / qp-adaptation-range=1.00
Language : English
Default : Yes
Forced : No
Color range : Limited
Color primaries : BT.709
Transfer characteristics : BT.709
Matrix coefficients : BT.709

Audio #1
ID : 2
Format : AC-3
Format/Info : Audio Coding 3
Commercial name : Dolby Digital
Codec ID : A_AC3
Duration : 47mn 42s
Bit rate mode : Constant
Bit rate : 192 Kbps
Channel(s) : 2 channels
Channel layout : L R
Sampling rate : 48.0 KHz
Frame rate : 31.250 fps (1536 SPF)
Compression mode : Lossy
Stream size : 65.5 MiB (7%)
Title : AC3 2.0 / 192kbps / original
Language : English
Service kind : Complete Main
Default : Yes
Forced : No

Audio #2
ID : 3
Format : AAC LC
Format/Info : Advanced Audio Codec Low Complexity
Codec ID : A_AAC-2
Duration : 47mn 42s
Bit rate : 192 Kbps
Channel(s) : 2 channels
Channel layout : L R
Sampling rate : 48.0 KHz
Frame rate : 46.875 fps (1024 SPF)
Compression mode : Lossy
Delay relative to video : -44ms
Stream size : 64.8 MiB (7%)
Title : AAC 2.0 / 192kbps (from AC3 2.0 / 192kbps / original)
Language : English
Default : No
Forced : No

Menu
00:00:00.000 : en:Chapter 01
00:05:00.000 : en:Chapter 02
00:10:00.000 : en:Chapter 03
00:15:00.000 : en:Chapter 04
00:20:00.000 : en:Chapter 05
00:25:00.000 : en:Chapter 06
00:30:00.000 : en:Chapter 07
00:35:00.000 : en:Chapter 08
00:40:00.000 : en:Chapter 09
00:45:00.000 : en:Chapter 10


Download Race Against Pandemic (2020)(DOCU)(1080p WEBRip x265 HEVC crf22-M LsLt AC3-AAC 2.0)[Cømpact-cTurtle].mkv torrent




Home - Browse Torrents ExtraTorrents is in compliance with copyrights
2006-2020 ExtraTorrents