ExtraTorrents - The Largest Bittorent System Login   |    Register
Most searched
Hot torrents
Movie Torrents
View Torrent Info: Anelka: Misunderstood (2020)  720p   WEBRip   YTS   YIFY
View Torrent Info: Gabriels Inferno Part II 2020 1080p WEB-DL H264 AC3-EVO TGx  ⭐
View Torrent Info: Black Is King (2020)  720p   WEBRip   YTS   YIFY
View Torrent Info: The Kissing Booth 2 2020 1080p NF WEB-DL HIN-ENG DDP5 1 HDR HEVC-Telly
View Torrent Info: Palm Springs 2020 1080p HULU WEB-DL H264 AC3-EVO TGx  ⭐
View Torrent Info: For the Love of Jessee (2020) 720p WEB DL - X264 - AAC - E-Subs - DUSIcTv
View Torrent Info: Diving With Dolphins 2020 720p DSNP WEB-DL DDP5 1-BabyTorrent
View Torrent Info: In The Trap 2019 1080p WEB-DL H264 AC3-EVO TGx  ⭐
View Torrent Info: Cleanin Up The Town Remembering Ghostbusters 2019 1080p AMZN WEBRip DDP5 1 x264-ETHiCS TGx  ⭐
View Torrent Info: True History of the Kelly Gang 2019 1080p WEB-DL DDP5 1 H264-CMRG TGx  ⭐
Hot torrents
TV Torrents
View Torrent Info: Marvels Agents of S H I E L D S07E11 720p HDTV x264-KILLERS  eztv
View Torrent Info: The 100 S07E10 720p HDTV x264-SVA TGx  ⭐
View Torrent Info: Wentworth S08E02 1080p HDTV x264-Nemo  eztv
View Torrent Info: Deadliest Catch S16E17 Danger Close WEB H264-TXB TGx  ⭐
View Torrent Info: Bering Sea Gold S12E13 The Ice Mine Cometh WEB H264-TXB  eztv
View Torrent Info: QI S18E10 HDTV x264-LiNKLE  eztv
View Torrent Info: Marvels Agents of S H I E L D S07E10 720p HDTV x264-TWERK TGx  ⭐
View Torrent Info: Deadliest Catch S16E16 Bering Sea Wrecking Ball 720p WEB H264-TXB TGx  ⭐
View Torrent Info: American Dad S17E16 First Do No Farm 720p AMZN WEBRip DDP5 1 x264-CtrlHD TGx  ⭐
View Torrent Info: Wentworth S08E01 1080p WEBRip AAC2 0 x264-NOGRP TGx  ⭐
ExtraTorrents > Categories > TV torrents > SD torrents


Browse TV torrents

The.Umbrella.Academy.S02.WEBRip.x264-ION10


Download torrent: The.Umbrella.Academy.S02.WEBRip.x264-ION10 Magnet link The.Umbrella.Academy.S02.WEBRip.x264-ION10 The.Umbrella.Academy.S02.WEBRip.x264-ION10 | if not working, try instead: Magnet Link
Info hash: 1898D30DCF54E71C612BE50FA592210670655CD9
Category: Categories > TV torrents > SD torrents
Trackers:
3    View all torrent trackers >
Health:
 seeds: 1119 ,  leechers: 726
Torrent language: English
Total Size: 4.4 GB
Uploader:
Torrent added: 2020-08-01 04:21

Download The.Umbrella.Academy.S02.WEBRip.x264-ION10 torrent if not working, try downloading torrent using Download The.Umbrella.Academy.S02.WEBRip.x264-ION10 via Magnet Link




Torrent Description



Code:



Video
ID : 1
Format : AVC
Format/Info : Advanced Video Codec
Format profile : [email protected]
Format settings : CABAC / 5 Ref Frames
Format settings, CABAC : Yes
Format settings, Reference frames : 5 frames
Codec ID : avc1
Codec ID/Info : Advanced Video Coding
Duration : 50 min 1 s
Bit rate : 1 100 kb/s
Width : 720 pixels
Height : 360 pixels
Display aspect ratio : 2.000
Frame rate mode : Constant
Frame rate : 23.976 (24000/1001) FPS
Color space : YUV
Chroma subsampling : 4:2:0
Bit depth : 8 bits
Scan type : Progressive
Bits/(Pixel*Frame) : 0.177
Stream size : 378 MiB (80%)
Title : The.Umbrella.Academy.S02E06.WEBRip.x264-ION10
Writing library : x264 core 148 r2795M aaa9aa8
Encoding settings : cabac=1 / ref=5 / deblock=1:-1:-1 / analyse=0x3:0x113 / me=umh / subme=9 / psy=1 / psy_rd=1.00:0.15 / mixed_ref=1 / me_range=16 / chroma_me=1 / trellis=2 / 8x8dct=1 / cqm=0 / deadzone=21,11 / fast_pskip=1 / chroma_qp_offset=-3 / threads=24 / lookahead_threads=2 / sliced_threads=0 / nr=0 / decimate=1 / interlaced=0 / bluray_compat=0 / constrained_intra=0 / bframes=3 / b_pyramid=2 / b_adapt=2 / b_bias=0 / direct=3 / weightb=1 / open_gop=0 / weightp=2 / keyint=250 / keyint_min=23 / scenecut=40 / intra_refresh=0 / rc_lookahead=50 / rc=abr / mbtree=1 / bitrate=1100 / ratetol=1.0 / qcomp=0.60 / qpmin=0 / qpmax=69 / qpstep=4 / ip_ratio=1.40 / aq=1:1.00
Encoded date : UTC 2020-07-31 06:12:50
Tagged date : UTC 2020-07-31 06:12:50
Codec configuration box : avcC

Audio
ID : 2
Format : AAC LC
Format/Info : Advanced Audio Codec Low Complexity
Codec ID : mp4a-40-2
Duration : 50 min 1 s
Duration_LastFrame : -11 ms
Bit rate mode : Constant
Bit rate : 256 kb/s
Channel(s) : 2 channels
Channel layout : L R
Sampling rate : 48.0 kHz
Frame rate : 46.875 FPS (1024 SPF)
Compression mode : Lossy
Stream size : 91.6 MiB (19%)
Title : The.Umbrella.Academy.S02E06.WEBRip.x264-ION10
Language : English
Default : Yes
Alternate group : 1
Encoded date : UTC 2020-07-31 06:12:50
Tagged date : UTC 2020-07-31 06:12:50




Download The.Umbrella.Academy.S02.WEBRip.x264-ION10 torrent




Home - Browse Torrents ExtraTorrents is in compliance with copyrights
2006-2020 ExtraTorrents