ExtraTorrents - The Largest Bittorent System Login   |    Register
Most searched
Hot torrents
Movie Torrents
View Torrent Info: Alien Contactee (2020) 720p WEB x264 Dr3adLoX
View Torrent Info: The 2nd 2020 AMZN 1080p WEB-DL H264 DDP5 1-EVO EtHD
View Torrent Info: Youre Not Alone 2020 1080p AMZN WEBRip DDP5 1 x264-NTG TGx  ⭐
View Torrent Info: Project Power 2020 1080p NF WEB-DL DDP5 1 Atmos x264-CMRG TGx  ⭐
View Torrent Info: Romance in the Outfield- Double Play (2020) 720p WEB DL - x264 - AAC - E-Subs - DUSIcTv
View Torrent Info: Anelka: Misunderstood (2020)  720p   WEBRip   YTS   YIFY
View Torrent Info: Black Is King (2020)  720p   WEBRip   YTS   YIFY
View Torrent Info: Diving With Dolphins 2020 720p DSNP WEB-DL DDP5 1-BabyTorrent
View Torrent Info: In The Trap 2019 1080p WEB-DL H264 AC3-EVO TGx  ⭐
View Torrent Info: True History of the Kelly Gang 2019 1080p WEB-DL DDP5 1 H264-CMRG TGx  ⭐
Hot torrents
TV Torrents
View Torrent Info: NCIS S18E02 720p HDTV x264-SYNCOPY TGx  ⭐
View Torrent Info: Fargo S04E10 Happy 720p HDTV x264-CRiMSON
View Torrent Info: Talking Dead S09E20 REAL 480p x264-mSD TGx  ⭐
View Torrent Info: NCIS New Orleans S07E03 720p HDTV x264-SYNCOPY TGx  ⭐
View Torrent Info: Family Guy S19E07 720p WEB H264-CAKES TGx  ⭐
View Torrent Info: Bobs Burgers S11E07 720p WEB H264-CAKES TGx  ⭐
View Torrent Info: Fear the Walking Dead S06E07 720p WEB H264-GGWP TGx  ⭐
View Torrent Info: Ancient Aliens S16E02 The Lost Kingdom BLEAUHAUS
View Torrent Info: Gold Rush S11E05 Its Alive WEBRip x264-CAFFEiNE TGx  ⭐
View Torrent Info: Talking Dead S09E19 REAL 480p x264-mSD TGx  ⭐
ExtraTorrents > Categories > Movies torrents > HD torrents


Browse Movies torrents

Greenland.2020.1080p.AMZN.WEBRip.DDP5.1.x264-NTG


Download torrent: Greenland.2020.1080p.AMZN.WEBRip.DDP5.1.x264-NTG Magnet link Greenland.2020.1080p.AMZN.WEBRip.DDP5.1.x264-NTG Greenland.2020.1080p.AMZN.WEBRip.DDP5.1.x264-NTG | if not working, try instead: Magnet Link
Info hash: 61D2FE2B6D888BE09DA3306AD751F1F0AC37BC8D
Category: Categories > Movies torrents > HD torrents
Trackers:
3    View all torrent trackers >
Health:
 seeds: 4544 ,  leechers: 1201
Torrent language: English
Total Size: 7.6 GB
Uploader:
Torrent added: 2020-11-14 11:34
Greenland.2020.1080p.AMZN.WEBRip.DDP5.1.x264-NTG

Download Greenland.2020.1080p.AMZN.WEBRip.DDP5.1.x264-NTG torrent if not working, try downloading torrent using Download Greenland.2020.1080p.AMZN.WEBRip.DDP5.1.x264-NTG via Magnet Link




Torrent Description

Code:

Video
ID : 1
Format : AVC
Format/Info : Advanced Video Codec
Format profile : [email protected]
Format settings : CABAC / 4 Ref Frames
Format settings, CABAC : Yes
Format settings, Reference frames : 4 frames
Codec ID : V_MPEG4/ISO/AVC
Duration : 1 h 59 min
Bit rate mode : Constant
Bit rate : 8 390 kb/s
Nominal bit rate : 10 000 kb/s
Width : 1 920 pixels
Height : 800 pixels
Display aspect ratio : 2.40:1
Frame rate mode : Constant
Frame rate : 23.976 (24000/1001) FPS
Color space : YUV
Chroma subsampling : 4:2:0
Bit depth : 8 bits
Scan type : Progressive
Bits/(Pixel*Frame) : 0.228
Stream size : 7.02 GiB (93%)
Default : Yes
Forced : No
Color range : Limited
Color primaries : BT.709
Transfer characteristics : BT.709
Matrix coefficients : BT.709

Audio
ID : 2
Format : E-AC-3
Format/Info : Enhanced AC-3
Commercial name : Dolby Digital Plus
Codec ID : A_EAC3
Duration : 1 h 59 min
Bit rate mode : Constant
Bit rate : 640 kb/s
Channel(s) : 6 channels
Channel layout : L R C LFE Ls Rs
Sampling rate : 48.0 kHz
Frame rate : 31.250 FPS (1536 SPF)
Compression mode : Lossy
Stream size : 548 MiB (7%)
Language : English
Service kind : Complete Main
Default : Yes
Forced : No


Download Greenland.2020.1080p.AMZN.WEBRip.DDP5.1.x264-NTG torrent




Home - Browse Torrents ExtraTorrents is in compliance with copyrights
2006-2020 ExtraTorrents